Back Door - Back Door (1972) [2000]

Перейти вниз

Back Door - Back Door (1972) [2000]

Сообщение  bellyfred в Ср Окт 06, 2010 11:14 pm



Категория: Album
Исполнитель: Back Door
Название диска: Back Door
Жанр: jazz rock, fusion
Год выпуска: 1972/2000
Количество треков: 12
Время звучания: 31:25
Формат | Качество: flac+cue | lossless
Размер файла: 186 mb + 3%
Количество партов: 1
Залито на: rapidshare.com
Источник: my collection



Track Listing:
01. Vienna Breakdown 2:23
02. Plantagenet 1:41
03. Lieutenant Loose 2:42
04. Askin' the Way 3:01
05. Turning Point 2:16
06. Slivadiv 3:48
07. Jive Grind 2:52
08. Human Bed 2:29
09. Catcote 1:59
10. Waltz for a Wollum 2:23
11. Folksong 3:06
12. Back Door 2:50

The Band:
Colin Hodgkinson: Fender P-Bass, Vocals
Ron Aspery: Keyboards, Flute, Sax
Tony Hicks: Drums

Released by the band on the Blakey label in 1972 and then re-released by Warner in 1973, this instrumental album is impressive from start to finish, and a veritable catalog of bass guitar technique. Asbery's funky sax and flute work leaves the bottom end completely open to the bass guitar, and Hodgkinson's use of strummed chords is ably backed by his bandmates on the squalling opener "Vienna Breakdown." The mel-low fon-kay bass solo, "Lieutenant Loose," makes effective use of ringing open strings, while "Slivadiv" is a fret-hammering delight. If you're a bassist, be forewarned: listening to this album is a deeply humbling experience.


"EAC extraction logfile":
Exact Audio Copy V0.99 prebeta 5 from 4. May 2009

EAC extraction logfile from 2. October 2010, 15:13

Back Door / Back Door

Used drive : PIONEER DVD-RW DVR-215D Adapter: 4 ID: 0

Read mode : Secure
Utilize accurate stream : Yes
Defeat audio cache : Yes
Make use of C2 pointers : No

Read offset correction : 48
Overread into Lead-In and Lead-Out : No
Fill up missing offset samples with silence : Yes
Delete leading and trailing silent blocks : No
Null samples used in CRC calculations : Yes
Used interface : Native Win32 interface for Win NT & 2000

Used output format : User Defined Encoder
Selected bitrate : 1024 kBit/s
Quality : High
Add ID3 tag : No
Command line compressor : C:\Program Files\Exact Audio Copy\Flac\flac.exe
Additional command line options : -8 -V %s


TOC of the extracted CD

Track | Start | Length | Start sector | End sector
---------------------------------------------------------
1 | 0:00.00 | 2:23.72 | 0 | 10796
2 | 2:23.72 | 1:41.55 | 10797 | 18426
3 | 4:05.52 | 2:42.73 | 18427 | 30649
4 | 6:48.50 | 3:01.02 | 30650 | 44226
5 | 9:49.52 | 2:16.38 | 44227 | 54464
6 | 12:06.15 | 3:48.32 | 54465 | 71596
7 | 15:54.47 | 2:52.65 | 71597 | 84561
8 | 18:47.37 | 2:29.35 | 84562 | 95771
9 | 21:16.72 | 1:59.00 | 95772 | 104696
10 | 23:15.72 | 2:23.60 | 104697 | 115481
11 | 25:39.57 | 3:06.10 | 115482 | 129441
12 | 28:45.67 | 2:49.33 | 129442 | 142149


Range status and errors

Selected range

Filename C:\Documents and Settings\валера\Рабочий стол\Back Door - Back Door (1972).wav

Peak level 93.6 %
Range quality 100.0 %
Copy CRC 1D150FA8
Copy OK

No errors occurred


AccurateRip summary

Track 1 accurately ripped (confidence 6) [6141471B]
Track 2 accurately ripped (confidence 6) [8E0B30B3]
Track 3 accurately ripped (confidence 6) [1A5B17F3]
Track 4 accurately ripped (confidence 6) [901F4E3D]
Track 5 accurately ripped (confidence 6) [DD927D97]
Track 6 accurately ripped (confidence 6) [030DAADF]
Track 7 accurately ripped (confidence 6) [C0EA30DF]
Track 8 accurately ripped (confidence 6) [D146E3E2]
Track 9 accurately ripped (confidence 6) [B5FAFD46]
Track 10 accurately ripped (confidence 6) [38DDDEF4]
Track 11 accurately ripped (confidence 6) [2482903A]
Track 12 accurately ripped (confidence 6) [5495697E]

All tracks accurately ripped

End of status report




"AUDIOCHECKER logfile":
AUDIOCHECKER v2.0 beta (build 457) - by Dester - opdester@freemail.hu
~~~~~~~~~~~~~~~~~~~~~~~~~~~~~~~~~~

Начато: суббота, 02. 10. 2010. - 15:15.56
Найдено файлов: 1

1 -===- C:\Documents and Settings\валера\Рабочий стол\Back Door - Back Door (1972)\Back Door - Back Door (1972).flac
Извлечение успешно выполнено
Заключение: этот трек - CDDA с вероятностью 100%
Временный файл удалён.


Завершено: суббота, 02. 10. 2010. - 15:18.11 (Время операции: 0:02.15)

avatar
bellyfred

Сообщения : 91
Дата регистрации : 2009-12-23
Возраст : 55

Вернуться к началу Перейти вниз

Re: Back Door - Back Door (1972) [2000]

Сообщение  sasos в Чт Окт 07, 2010 12:05 am

Спасибо, обновлюсь, интересный джаз рок играет эта группа.
avatar
sasos

Сообщения : 529
Дата регистрации : 2009-12-03
Возраст : 58

Вернуться к началу Перейти вниз

Вернуться к началу

- Похожие темы

 
Права доступа к этому форуму:
Вы не можете отвечать на сообщения