Hardin & York - The World's Smallest Bigband 1970 (New 24 bit remastered with 8 bonus tracks)

Перейти вниз

Hardin & York - The World's Smallest Bigband 1970 (New 24 bit remastered with 8 bonus tracks)

Сообщение  kirill-purple в Ср Окт 20, 2010 8:27 pm

Hardin & York - The World's Smallest Bigband 1970 (New 24 bit remastered with 8 bonus tracks)



Страна: UK
Жанр: Prog rock
Информация о релизе: CD Esoteric Recordings ECLEC2090
Формат: Flac (image+cue+log+scans)
Продолжительность: 76:38
Размер архива: 495mb(+5%recover)
Источник: my CD

Трэклист:
1. Just A Case Of Time
2. I can`t Find My Way Home
3. Love,A Song For You
4. Rock N Roll Medley:
a). Jailhouse Rock
b). Mean Woman Blues
c). Rip It Up!
5. The Pike
6. Northern Medley:
a). Lady Madonna
b). Norwegian Wood

Bonus Tracks:
7. If I Could Join Them
8. David Difficult
9. Tomorrow Today
10. Candlelight
11. Little Miss Blue
12.Can`t Keep a Good Man Down
Promotional radio session recorded 4th june 1969

13.Cowboy
14.Everyone I Know
Recorded live in Germany in 1970

Состав:
Eddie Hardin (keyboards, vocals),
Pete York (drums, percussions)

Спойлер:
Exact Audio Copy V0.99 prebeta 4 from 23. January 2008

Отчёт EAC об извлечении, выполненном 20. октября 2010, 14:16

Hardin and York / The World`s Smallest Bigband

Дисковод: ASUS DRW-24B1ST Adapter: 3 ID: 0

Режим чтения : Достоверность
Использование точного потока : Да
Отключение кэша аудио : Да
Использование указателей C2 : Нет

Коррекция смещения при чтении : 6
Способность читать области Lead-in и Lead-out : Нет
Заполнение пропущенных сэмплов тишиной : Да
Удаление блоков с тишиной в начале и конце : Нет
При вычислениях CRC использовались нулевые сэмплы : Да
Интерфейс : Встроенный Win32-интерфейс для Win NT/2000

Выходной формат : Пользовательский кодировщик
Выбранный битрейт : 128 kBit/s
Качество : Высокий
Добавление ID3-тэга : Нет
Утилита сжатия : C:\Program Files\Exact Audio Copy\FLAC\FLAC.EXE
Дополнительные параметры : -8 -V %s


TOC извлечённого CD

Трек | Старт | Длительность | Начальный сектор | Конечный сектор
---------------------------------------------------------------------
1 | 0:00.31 | 4:05.19 | 31 | 18424
2 | 4:05.50 | 3:38.38 | 18425 | 34812
3 | 7:44.13 | 6:20.35 | 34813 | 63347
4 | 14:04.48 | 4:55.30 | 63348 | 85502
5 | 19:00.03 | 9:00.30 | 85503 | 126032
6 | 28:00.33 | 10:15.07 | 126033 | 172164
7 | 38:15.40 | 3:12.29 | 172165 | 186593
8 | 41:27.69 | 6:12.05 | 186594 | 214498
9 | 47:39.74 | 3:23.10 | 214499 | 229733
10 | 51:03.09 | 5:19.39 | 229734 | 253697
11 | 56:22.48 | 3:56.52 | 253698 | 271449
12 | 60:19.25 | 6:11.71 | 271450 | 299345
13 | 66:31.21 | 5:17.10 | 299346 | 323130
14 | 71:48.31 | 4:50.26 | 323131 | 344906


Характеристики диапазона извлечения и сообщения об ошибках

Выбранный диапазон

Имя файла C:\Torrent\purple\Hardin and York - The World`s Smallest Bigband.wav

Пиковый уровень 99.4 %
Качество диапазона 99.9 %
CRC теста B5497E96
CRC копии B5497E96
Копирование... OK

Ошибок не произошло


AccurateRip: сводка

Трек 1 нет в базе данных
Трек 2 нет в базе данных
Трек 3 нет в базе данных
Трек 4 нет в базе данных
Трек 5 нет в базе данных
Трек 6 нет в базе данных
Трек 7 нет в базе данных
Трек 8 нет в базе данных
Трек 9 нет в базе данных
Трек 10 нет в базе данных
Трек 11 нет в базе данных
Трек 12 нет в базе данных
Трек 13 нет в базе данных
Трек 14 нет в базе данных

Ни одного трека нет в базе AccurateRip

Конец отчёта

Код:
http://ifolder.ru/19859429
avatar
kirill-purple

Сообщения : 63
Дата регистрации : 2010-10-14

Вернуться к началу Перейти вниз

Вернуться к началу

- Похожие темы

 
Права доступа к этому форуму:
Вы не можете отвечать на сообщения