Graham Bell - Bell & Arc / Graham Bell (1971/1972) [2004, Wallhalla, WH 90338]

Перейти вниз

Graham Bell - Bell & Arc / Graham Bell (1971/1972) [2004, Wallhalla, WH 90338]

Сообщение  bellyfred в Чт Ноя 25, 2010 4:22 am


Категория: Album
Исполнитель: Graham Bell
Название диска: Bell & Arc / Graham Bel
Жанр: progressive rock
Год выпуска: 1971-1972/2004
Количество треков: 19
Время звучания: 01:19:53
Формат | Качество: flac+cue | lossless
Размер файла: 467 mb + 3%
Коврики: 4 mb/300 dpi
Количество партов: 1
Залито на: rapidshare.com / narod.ru
Источник: my collection



Track Listing:
01. High Priest of Memphis (3:30)
02. Let Your Love Run Free (6:00)
03. Keep a Wise Mind (3:19)
04. So Long Marianne (3:44)
05. She Belongs to Me (4:29)
06. Yat Rock (6:08)
07. Dawn (3:00)
08. Children of the North Prison (4:15)
09. Everyday (3:53)
10. Before You Can Be A Man 3:55
11. The Thrill Is Gone 4:45
12. After Midnight 5:25
13. Down In The City 5:03
14. Watch The River Flow 4:40
15. Too Many People 4:12
16. How Long Will It Last 3:04
17. The Whole Town Wants You Hung 2:22
18. The Man With Ageless Eyes 5:08
19. So Black And So Blue 3:49









"EAC extraction logfile":
Exact Audio Copy V0.99 prebeta 5 from 4. May 2009

EAC extraction logfile from 24. November 2010, 17:41

Graham Bell / Bell & Arc/Graham Bell

Used drive : PIONEER DVD-RW DVR-215D Adapter: 4 ID: 0

Read mode : Secure
Utilize accurate stream : Yes
Defeat audio cache : Yes
Make use of C2 pointers : No

Read offset correction : 48
Overread into Lead-In and Lead-Out : No
Fill up missing offset samples with silence : Yes
Delete leading and trailing silent blocks : No
Null samples used in CRC calculations : Yes
Used interface : Native Win32 interface for Win NT & 2000

Used output format : User Defined Encoder
Selected bitrate : 1024 kBit/s
Quality : High
Add ID3 tag : No
Command line compressor : C:\Program Files\Exact Audio Copy\Flac\flac.exe
Additional command line options : -8 -V %s


TOC of the extracted CD

Track | Start | Length | Start sector | End sector
---------------------------------------------------------
1 | 0:00.00 | 3:24.18 | 0 | 15317
2 | 3:24.18 | 5:56.00 | 15318 | 42017
3 | 9:20.18 | 3:14.53 | 42018 | 56620
4 | 12:34.71 | 3:37.58 | 56621 | 72953
5 | 16:12.54 | 4:25.24 | 72954 | 92852
6 | 20:38.03 | 6:03.62 | 92853 | 120139
7 | 26:41.65 | 2:51.36 | 120140 | 133000
8 | 29:33.26 | 4:06.48 | 133001 | 151498
9 | 33:39.74 | 3:53.04 | 151499 | 168977
10 | 37:33.03 | 3:55.58 | 168978 | 186660
11 | 41:28.61 | 4:45.02 | 186661 | 208037
12 | 46:13.63 | 5:28.17 | 208038 | 232654
13 | 51:42.05 | 5:07.03 | 232655 | 255682
14 | 56:49.08 | 4:29.37 | 255683 | 275894
15 | 61:18.45 | 4:12.28 | 275895 | 294822
16 | 65:30.73 | 3:04.09 | 294823 | 308631
17 | 68:35.07 | 2:22.28 | 308632 | 319309
18 | 70:57.35 | 5:06.42 | 319310 | 342301
19 | 76:04.02 | 3:49.68 | 342302 | 359544


Range status and errors

Selected range

Filename C:\Documents and Settings\валера\Рабочий стол\Graham Bell - Bell & Arc Graham Bell (1972).wav

Peak level 98.8 %
Range quality 100.0 %
Test CRC 1CAFE0E8
Copy CRC 1CAFE0E8
Copy OK

No errors occurred


AccurateRip summary

Track 1 not present in database
Track 2 not present in database
Track 3 not present in database
Track 4 not present in database
Track 5 not present in database
Track 6 not present in database
Track 7 not present in database
Track 8 not present in database
Track 9 not present in database
Track 10 not present in database
Track 11 not present in database
Track 12 not present in database
Track 13 not present in database
Track 14 not present in database
Track 15 not present in database
Track 16 not present in database
Track 17 not present in database
Track 18 not present in database
Track 19 not present in database

None of the tracks are present in the AccurateRip database

End of status report










"Graham Bell":
Graham Bell (born 24 April 1948, in Blyth, Northumberland, England, died 2 May 2008) was a pop and rock singer. His father, Jimmy Bell, was a well known local singer and his mother, Leonora Rogers, was in show business prior to marriage after which she was heavily involved in local music and dance. Graham made a solo single in 1966, and a solo album in 1972 with Tim Hinkley, Mel Collins and Ian Wallace. He was a member of Skip Bifferty (aka Heavy Jelly), and Every Which Way, a band formed by Brian Davison formerly of the The Nice. Musical style was jazzy Prog Rock with guitar from John Hedley playing call and response with Bell’s blues shout vocals. Bell joined his old mates from Skip Bifferty to form Bell & Arc in July 1971, with John Turnbull, Mickey Gallagher, Bud Beadle, Kenny Craddock, Steve Gregory, and Alan White. They rapidly built a strong following around London and in the phrase current at the time “blew Joe Walsh off the stage” at a sold-out gig at The Roundhouse.
Bell was tempted away as a solo artist to record an album with Bob Johnson who produced Bob Dylan. He then appeared in “Tommy The Opera”. After this it was reported that Pete Townshend produced an album for him but it never saw the light of day. He dodged the limelight for many years before cropping up in Snowy White’s Blues Agency in 1989. He also played on Carol Grimes’ “Warm Blood” in 1974, with Tommy Eyre, Jess Roden, John ‘Rabbit’ Bundrick and Henry Lowther. Graham Bell died at his London home on 2 May 2008 following a short battle with cancer. (Wiki)





Последний раз редактировалось: bellyfred (Пт Ноя 26, 2010 1:45 am), всего редактировалось 2 раз(а)
avatar
bellyfred

Сообщения : 91
Дата регистрации : 2009-12-23
Возраст : 54

Вернуться к началу Перейти вниз

Re: Graham Bell - Bell & Arc / Graham Bell (1971/1972) [2004, Wallhalla, WH 90338]

Сообщение  sasos в Пт Ноя 26, 2010 12:57 am

Спасибо, скачал, дай думаю пробегусь посмотрю, что там, да только оторваться не могу, не знал раньше по тёмности, оба диска понравились
avatar
sasos

Сообщения : 529
Дата регистрации : 2009-12-03
Возраст : 58

Вернуться к началу Перейти вниз

Re: Graham Bell - Bell & Arc / Graham Bell (1971/1972) [2004, Wallhalla, WH 90338]

Сообщение  bardens в Вт Ноя 30, 2010 10:58 am

Спасибо, Валерий!!! Замечательно!
avatar
bardens
Admin

Сообщения : 468
Дата регистрации : 2009-11-27
Откуда : Московская обл. Тучково

http://3000-bardens.forum2x2.ru

Вернуться к началу Перейти вниз

Re: Graham Bell - Bell & Arc / Graham Bell (1971/1972) [2004, Wallhalla, WH 90338]

Сообщение  Спонсируемый контент


Спонсируемый контент


Вернуться к началу Перейти вниз

Вернуться к началу


 
Права доступа к этому форуму:
Вы не можете отвечать на сообщения